Wind River 2017 720p BRRip 999MB Movie Free Download

Wind River 2017 720p BRRip 999MB Movie Free DownloadHd Free This movie size is 1,000.49 MB its movie genres are  CrimeDramaMystery Wind River free download in English full hd length is 1h 47min .

Director: Taylor Sheridan
Writer: Taylor Sheridan
Stars: Kelsey Asbille, Jeremy Renner, Julia Jones

Imdb Picture

Wind River 2017 720p BRRip 999MB Movie Free Download

   Format                                   : Matroska
Format version                           : Version 4 / Version 2
File size                                : 1 000 MiB
Duration                                 : 1 h 46 min
Overall bit rate                         : 1 310 kb/s
Movie name                               : Wind.River.2017.720p.BRRip.999MB.MkvCage
Encoded date                             : UTC 2017-11-04 01:48:25
Writing application                      : mkvmerge v17.0.0 (‘Be Ur Friend’) 32-bit
Writing library                          : libebml v1.3.5 + libmatroska v1.4.8

Video
ID                                       : 2
Format                                   : AVC
Format/Info                              : Advanced Video Codec
Format profile                           : [email protected]
Format settings, CABAC                   : Yes
Format settings, ReFrames                : 9 frames
Codec ID                                 : V_MPEG4/ISO/AVC
Duration                                 : 1 h 46 min
Bit rate                                 : 1 209 kb/s
Width                                    : 1 280 pixels
Height                                   : 536 pixels
Display aspect ratio                     : 2.40:1
Frame rate mode                          : Constant
Frame rate                               : 23.976 (24000/1001) FPS
Color space                              : YUV
Chroma subsampling                       : 4:2:0
Bit depth                                : 8 bits
Scan type                                : Progressive
Bits/(Pixel*Frame)                       : 0.073
Stream size                              : 923 MiB (92%)
Writing library                          : x264 core 133 r2334 a3ac64b
Encoding settings                        : cabac=1 / ref=9 / deblock=1:0:0 / analyse=0x3:0x133 / me=umh / subme=10 / psy=1 / psy_rd=1.00:0.00 / mixed_ref=1 / me_range=24 / chroma_me=1 / trellis=2 / 8x8dct=1 / cqm=0 / deadzone=21,11 / fast_pskip=1 / chroma_qp_offset=-2 / threads=48 / lookahead_threads=4 / sliced_threads=0 / nr=0 / decimate=1 / interlaced=0 / bluray_compat=0 / constrained_intra=0 / bframes=6 / b_pyramid=2 / b_adapt=2 / b_bias=0 / direct=3 / weightb=1 / open_gop=0 / weightp=2 / keyint=240 / keyint_min=23 / scenecut=40 / intra_refresh=0 / rc_lookahead=60 / rc=2pass / mbtree=1 / bitrate=1209 / ratetol=1.0 / qcomp=0.60 / qpmin=10 / qpmax=51 / qpstep=4 / cplxblur=20.0 / qblur=0.5 / vbv_maxrate=62500 / vbv_bufsize=78125 / nal_hrd=none / ip_ratio=1.40 / aq=1:1.00
Default                                  : Yes
Forced                                   : No

Audio
ID                                       : 1
Format                                   : AAC
Format/Info                              : Advanced Audio Codec
Format profile                           : HE-AAC / LC
Codec ID                                 : A_AAC
Duration                                 : 1 h 46 min
Bit rate                                 : 100.0 kb/s
Channel(s)                               : 2 channels
Channel positions                        : Front: L R
Sampling rate                            : 48.0 kHz / 24.0 kHz
Frame rate                               : 23.438 FPS (1024 spf)
Compression mode                         : Lossy
Delay relative to video                  : 31 ms
Stream size                              : 76.4 MiB (8%)
Language                                 : English
Default                                  : Yes
Forced                                   : No

Text
ID                                       : 3
Format                                   : UTF-8
Codec ID                                 : S_TEXT/UTF8
Codec ID/Info                            : UTF-8 Plain Text
Duration                                 : 1 h 43 min
Bit rate                                 : 55 b/s
Count of elements                        : 1458
Stream size                              : 41.8 KiB (0%)
Language                                 : English
Default                                  : Yes
Forced                                   : No

Wind River free download in English full hd

Quality: BRRip
Size: 1,000.49 MB
Country Hollywood
Language:  English
Uploaded Date: 14 November 2017

Download Full Hd

Movie Story: WIND RIVER is a chilling thriller that follows a rookie FBI agent (Elizabeth Olsen) who teams up with a local game tracker with deep community ties and a haunted past (Jeremy Renner) to investigate the murder of a local girl on a remote Native American Reservation in the hopes of solving her mysterious death.

Wind River full movie watch online free hd
Wind River full movie hd online
Wind River full movie online free
Wind River full movie 2017 online
Wind River full movie,
Wind River full movie hd online,
Wind River full movie youtube,
watch Wind River hindi movie online,
Wind River full movie free download 720p
Wind River full movie watch online 720p
Wind River full movie download 1080p
Wind River full movie download 720p hd
Wind River full movie download 720p filmywap
Wind River full movie download mp4
Wind River full movie download moviescounter
Wind River full movie download 720p bluray

Leave a Reply