Transformers The Last Knight 2017 720p HDTS x264 Download Hd

Transformers The Last Knight 2017 720p HDTS x264 Download Hd This movie size is 4.04 GB its movie genres are ActionAdventureSci-Fi Transformers The Last Knight free download in English full hd length is 2h 29min. Transformers: The Last Knight is a 2017 American Movie Released on 21 June 2017 in USA grossed over $605 million worldwide.

Director: Michael Bay
Writers: Art Marcum, Matt Holloway
Stars: Mark Wahlberg, Anthony Hopkins, Josh Duhamel

Transformers: The Last Knight Poster

Transformers The Last Knight 2017 720p HDTS x264 Download Hd Moviemart.com

Complete name : ttln.mkv
Format : Matroska
Format version : Version 4 / Version 2
File size : 3.99 GiB
Duration : 2 h 30 min
Overall bit rate mode : Variable
Overall bit rate : 3 805 kb/s
Encoded date : UTC 2017-08-07 18:47:17
Writing application : mkvmerge v14.0.0 (‘Flow’) 64bit
Writing library : libebml v1.3.4 + libmatroska v1.4.5

Video
ID : 1
Format : AVC
Format/Info : Advanced Video Codec
Format profile : High [email protected]
Format settings, CABAC : Yes
Format settings, ReFrames : 5 frames
Codec ID : V_MPEG4/ISO/AVC
Duration : 2 h 30 min
Bit rate mode : Variable
Bit rate : 3 643 kb/s
Maximum bit rate : 14.0 Mb/s
Width : 1 280 pixels
Height : 536 pixels
Display aspect ratio : 2.40:1
Frame rate mode : Constant
Frame rate : 29.970 (30000/1001) FPS
Color space : YUV
Chroma subsampling : 4:2:0
Bit depth : 10 bits
Scan type : Progressive
Bits/(Pixel*Frame) : 0.177
Stream size : 3.82 GiB (96%)
Writing library : x264 core 148 r2744 b97ae06

Audio
ID : 2
Format : AAC
Format/Info : Advanced Audio Codec
Format profile : LC
Codec ID : A_AAC
Duration : 2 h 30 min
Bit rate : 160 kb/s
Channel(s) : 2 channels
Channel positions : Front: L R
Sampling rate : 48.0 kHz
Frame rate : 46.875 FPS (1024 spf)
Compression mode : Lossy
Stream size : 172 MiB (4%)
Default : Yes
Forced : No

Transformers The Last Knight free download in English full hd

Quality: HDTS
Size: 4.04 GB
Country Hollywood
Language:  English
Uploaded Date: 21 Oct 2017

Download Full Hd

Image result for sunny leone gifs

Image result for thanks gifs

Movie Story: transformers the last knight full movie download hd Optimus Prime finds his dead home planet, Cybertron, in which he comes to find he was responsible for its destruction. He finds a way to bring Cybertron back to life, but in order to do so, Optimus needs to find an artifact that is on Earth transformers the last knight 1080p download.

transformers the last knight in hindi full movie
transformers the last knight torrentking
transformers the last knight full movie in hindi download hd
transformers the last knight full movie english download
transformers the last knight 1080p yify
transformers the last knight 720p yify
transformers the last knight in hindi full movie
transformers the last knight 1080p download
transformers the last knight full movie in hindi download hd
transformers the last knight torrentking
transformers the last knight full movie english download
transformers the last knight 1080p yify
transformers the last knight 720p yify
transformers 5 1080p download
transformers the last knight 1080p yify
transformers the last knight 1080p download
transformers 5 movie download kickass
transformers the last knight 720p yify
transformers the last knight kickass
transformers the last knight torrentking
download transformers the last knight yify
transformers yify

Leave a Reply