Transformers The Last Knight (2017) 1080p x264 Download Full Hd Free

Transformers The Last Knight (2017) 1080p x264 Download Full Hd Free This movie size is 3.41 GB its movie genres are  ActionAdventureSci-Fi Transformers The Last Knight free download in Hindi Dubbed full hd length is 2h 29min. The Movie Was Released On  21 June 2017 In USA.

Director: Michael Bay
Writers: Art Marcum, Matt Holloway
Stars: Mark Wahlberg, Anthony Hopkins, Josh Duhamel

General
Format : Matroska
Format version : Version 4 / Version 2
File size : 3.41 GiB
Duration : 2 h 34 min
Overall bit rate : 3 152 kb/s
Encoded date : UTC 2017-10-19 06:35:53
Writing application : mkvmerge v15.0.0 (‘Duel with the Devil’) 64-bit
Writing library : libebml v1.3.5 + libmatroska v1.4.5
Video
ID : 1
Format : AVC
Format/Info : Advanced Video Codec
Format profile : [email protected]
Format settings, CABAC : Yes
Format settings, ReFrames : 4 frames
Codec ID : V_MPEG4/ISO/AVC
Duration : 2 h 34 min
Bit rate : 2 500 kb/s
Width : 1 920 pixels
Height : 1 008 pixels
Display aspect ratio : 1.905
Frame rate mode : Constant
Frame rate : 23.976 (23976/1000) FPS
Color space : YUV
Chroma subsampling : 4:2:0
Bit depth : 8 bits
Scan type : Progressive
Bits/(Pixel*Frame) : 0.054
Stream size : 2.70 GiB (79%)
Title : Transformers The Last Knight (2017) 1080p x264 [Hindi Audio 5.1 [email protected] 640 kbps Only] [Dzrg Torrents®].mkv
Writing library : x264 core 152 r2851M ba24899
Language : Hindi
Default : Yes
Forced : No
Audio
ID : 2
Format : AC-3
Format/Info : Audio Coding 3
Mode extension : CM (complete main)
Format settings, Endianness : Big
Codec ID : A_AC3
Duration : 2 h 34 min
Bit rate mode : Constant
Bit rate : 640 kb/s
Channel(s) : 6 channels
Channel positions : Front: L C R, Side: L R, LFE
Sampling rate : 48.0 kHz
Frame rate : 31.250 FPS (1536 spf)
Bit depth : 16 bits
Compression mode : Lossy
Stream size : 708 MiB (20%)
Title : [Hindi Audio 5.1 [email protected] 640 kbps Only] [Dzrg Torrents®] Language : Hindi
Default : Yes
Forced : No
Text
ID : 3
Format : PGS
Muxing mode : zlib
Codec ID : S_HDMV/PGS
Codec ID/Info : Picture based subtitle format used on BDs/HD-DVDs
Duration : 2 h 34 min
Bit rate : 31.0 kb/s
Count of elements : 4725
Stream size : 34.1 MiB (1%)
Title : PGS
Language : Hindi
Default : Yes
Forced : No

The Last Knight free download in Hindi Dubbed full hd

Quality: 1080p
Size: 3.41 GB
Country Hollywood
Language:  Hindi
Uploaded Date: 20 Oct 2017

Download Full Hd

Image result

Image result for thanks gifs

Movie Story: transformers the last knight full movie download hd Autobots and Decepticons are at war, with humans on the sidelines. Optimus Prime is gone. transformers the last knight full movie english download The key to saving our future lies buried in the secrets of the past, in the hidden history of Transformers on Earth.

transformer the last knight full movie download in hindi
transformers 5 full movie free download in english hd
transformers the last knight 1080p download
transformers the last knight 1080p yify
transformers the last knight full movie in hindi download khatrimaza
transformers the last knight full movie in hindi hd
transformer the last knight dual audio 720p
transformers the last knight dual audio 300mb
transformers the last knight full movie in hindi 720p
transformers 5 dual audio 1080p
transformers the last knight full movie in hindi download hd
transformers the last knight 2017 1080p
transformer 5 dual audio 720p
transformers the last knight dual audio download
transformers 5 dual audio 1080p
transformers 5 full movie in hindi hd 720p
transformers the last knight dual audio 300mb
transformer the last knight dual audio 720p
transformers 5 full movie hd 720p download
transformers the last knight 2017 1080p
transformers the last knight full movie in hindi 720p
transformers the last knight 720p download

Recent search terms:

  • full hd 1080 p movie of transformer the last knight in hindi dubed filmywap

Leave a Reply