The Villainess 2017 720p BRRip Free Download Movie

The Villainess 2017 720p BRRip Free Download Movie Hd Free This movie size is 1.15 GB its movie genres are  Action The Villainess free download in English full hd length is   .

Director: Byung-gil Jung
Writers: Byeong-sik Jung, Byung-gil Jung
Stars: Ok-bin Kim, Ha-kyun Shin, Jun Sung

Imdb Picture

The Villainess 2017 720p BRRip Free Download Movie

   Format                                   : Matroska
Format version                           : Version 4 / Version 2
File size                                : 1.15 GiB
Duration                                 : 2 h 3 min
Overall bit rate                         : 1 340 kb/s
Movie name                               : The.Villainess.2017.720p.BRRip.MkvCage
Encoded date                             : UTC 2017-11-04 03:25:15
Writing application                      : mkvmerge v17.0.0 (‘Be Ur Friend’) 32-bit
Writing library                          : libebml v1.3.5 + libmatroska v1.4.8

Video
ID                                       : 3
Format                                   : AVC
Format/Info                              : Advanced Video Codec
Format profile                           : [email protected]
Format settings, CABAC                   : Yes
Format settings, ReFrames                : 9 frames
Codec ID                                 : V_MPEG4/ISO/AVC
Duration                                 : 2 h 3 min
Bit rate                                 : 1 239 kb/s
Width                                    : 1 280 pixels
Height                                   : 536 pixels
Display aspect ratio                     : 2.40:1
Frame rate mode                          : Constant
Frame rate                               : 24.000 FPS
Color space                              : YUV
Chroma subsampling                       : 4:2:0
Bit depth                                : 8 bits
Scan type                                : Progressive
Bits/(Pixel*Frame)                       : 0.075
Stream size                              : 1.07 GiB (92%)
Writing library                          : x264 core 133 r2334 a3ac64b
Encoding settings                        : cabac=1 / ref=9 / deblock=1:0:0 / analyse=0x3:0x133 / me=umh / subme=10 / psy=1 / psy_rd=1.00:0.00 / mixed_ref=1 / me_range=24 / chroma_me=1 / trellis=2 / 8x8dct=1 / cqm=0 / deadzone=21,11 / fast_pskip=1 / chroma_qp_offset=-2 / threads=48 / lookahead_threads=4 / sliced_threads=0 / nr=0 / decimate=1 / interlaced=0 / bluray_compat=0 / constrained_intra=0 / bframes=6 / b_pyramid=2 / b_adapt=2 / b_bias=0 / direct=3 / weightb=1 / open_gop=0 / weightp=2 / keyint=240 / keyint_min=24 / scenecut=40 / intra_refresh=0 / rc_lookahead=60 / rc=2pass / mbtree=1 / bitrate=1239 / ratetol=1.0 / qcomp=0.60 / qpmin=10 / qpmax=51 / qpstep=4 / cplxblur=20.0 / qblur=0.5 / vbv_maxrate=62500 / vbv_bufsize=78125 / nal_hrd=none / ip_ratio=1.40 / aq=1:1.00
Default                                  : Yes
Forced                                   : No

Audio
ID                                       : 1
Format                                   : AAC
Format/Info                              : Advanced Audio Codec
Format profile                           : HE-AAC / LC
Codec ID                                 : A_AAC
Duration                                 : 2 h 3 min
Bit rate                                 : 100.0 kb/s
Channel(s)                               : 2 channels
Channel positions                        : Front: L R
Sampling rate                            : 48.0 kHz / 24.0 kHz
Frame rate                               : 23.438 FPS (1024 spf)
Compression mode                         : Lossy
Delay relative to video                  : 31 ms
Stream size                              : 88.2 MiB (7%)
Language                                 : Korean
Default                                  : Yes
Forced                                   : No

Text
ID                                       : 2
Format                                   : UTF-8
Codec ID                                 : S_TEXT/UTF8
Codec ID/Info                            : UTF-8 Plain Text
Duration                                 : 2 h 3 min
Bit rate                                 : 22 b/s
Count of elements                        : 870
Stream size                              : 19.9 KiB (0%)
Language                                 : English
Default                                  : Yes
Forced                                   : No

The Villainess free download in English full hd

Quality: BRRip
Size: 1.15 GB
Country Hollywood
Language:  English
Uploaded Date: 14 November 2017

Download Full Hd

Movie Story: Sook-hee is a trained assassin who was born to kill. She was just a little girl when the training started in Yanbian, China. The Villainess full movie free download mp4 After the death of her mentor, when the chance of starting a new life was given to her, she came to South Korea as a government agent. They promised her that she will be free after ten years of service. The Villainess dual audio 1080p So she begins her new life as a theatre actress. But soon two men Joong-sang and Hyun-soo appear in her new life. And she started to find deep dark secrets about her past. Eventually she take matters into her own hands.

The Villainess full movie in hindi free download utorrent
The Villainess full movie free download mp4
The Villainess full movie download in hindi hd 720p
The Villainess (2017) – hd 1080p download
The Villainess full movie download free
The Villainess full movie in hindi free download 1080p
The Villainess full movie free download utorrent
The Villainess dual audio 1080p
The Villainess download full movie
The Villainess full movie in hindi 2017
The Villainess full movie in hindi free download utorrent
The Villainess full movie in hindi dubbed

Leave a Reply