Sardaarji 2015 Punjabi 720p DvDRip x264 AAC ESub Download Free

Sardaarji 2015 Punjabi 720p DvDRip x264 AAC ESub Download Free This movie size is 1 022 MiB its movie genres are Romance Sardaarji free download in Punjabi full hd length is 2h 21min. Sardaar Ji is one of the first fantasy films to be made in Punjabi cinema.

Director: Rohit Jugraj
Writers: Surmeet Maavi, Dheeraj Rattan
Stars: Diljit Dosanjh, Neeru Bajwa, Mandy Takhar

Sardaar Ji Poster

Sardaarji 2015 Punjabi 720p DvDRip x264 AAC ESub Download Free Moviemart.com

Format                                   : Matroska
Format version                           : Version 4 / Version 2
File size                                : 1 022 MiB
Duration                                 : 2 h 20 min
Overall bit rate                         : 1 014 kb/s
Movie name                               : Sardaarji 2015 -Hon3y

Video
ID                                       : 1
Format                                   : AVC
Format/Info                              : Advanced Video Codec
Format profile                           : High@L4.1
Format settings                          : CABAC / 8 Ref Frames
Format settings, CABAC                   : Yes
Format settings, RefFrames               : 8 frames
Codec ID                                 : V_MPEG4/ISO/AVC
Duration                                 : 2 h 20 min
Bit rate                                 : 916 kb/s
Width                                    : 1 280 pixels
Height                                   : 544 pixels
Display aspect ratio                     : 2.35:1
Frame rate mode                          : Constant
Frame rate                               : 23.976 (24000/1001) FPS

Audio
ID                                       : 2
Format                                   : AAC
Format/Info                              : Advanced Audio Codec
Format profile                           : LC
Codec ID                                 : A_AAC-2
Duration                                 : 2 h 20 min
Bit rate                                 : 96.0 kb/s
Channel(s)                               : 2 channels
Channel positions                        : Front: L R
Sampling rate                            : 48.0 kHz
Frame rate                               : 46.875 FPS (1024 SPF)
Compression mode                         : Lossy
Delay relative to video                  : 9 ms
Stream size                              : 96.8 MiB (9%)
Language                                 : Hindi
Default                                  : Yes
Forced                                   : No

Text
ID                                       : 3
Format                                   : UTF-8
Codec ID                                 : S_TEXT/UTF8
Codec ID/Info                            : UTF-8 Plain Text
Duration                                 : 2 h 19 min
Bit rate                                 : 59 b/s
Count of elements                        : 1858
Stream size                              : 61.4 KiB (0%)

Sardaarji free download in Punjabi full hd

Quality: DvDRip
Size: 1022 MiB
Country Bollywood
Language:  Punjabi
Uploaded Date: 19 Oct 2017

Download Full Hd

Image result

Image result for thanks gifs

Movie Story: sardar ji full movie watch online free hd 720p A smart, young, fearless, Indian ghost hunter traps ghosts in bottles.

sardar ji 1 full movie online
sardar ji full movie hd watch online
sardar ji full movie youtube
sardar ji full movie watch online youtube
sardar ji full movie part 1
sardar ji diljit full movie watch online
sardar ji full movie 2015 download
sardar ji full movie hd download
sardar ji full movie hd watch online
sardar ji 1 full movie
sardar ji full movie watch online
sardar ji full movie youtube
sardar ji full movie watch online free hd 720p
sardar ji 1 full movie online
sardaar ji 2015 full punjabi movie watch online hd
sardar ji full movie dailymotion
sardar ji movie online youtube
sardaar ji 2 full movie dailymotion part 1
sardar ji diljit full movie watch online
sardar ji full movie on youtube
sardaar ji punjabi movie watch online
sardaar ji full movie watch online hd
sardar ji full movie hd download

Recent search terms:

  • bailaras mp4 punjabi movie download

Leave a Reply