Rocky Mental 2017 CAMRIP Punjabi Movie Download Full Hd Free

Rocky Mental 2017 CAMRIP Punjabi Movie Download Full Hd Free This movie size is 234 MiB its movie genres are ActionDramaThriller Rocky Mental free download in Punjabi full hd length is 2h 9min. The Movie Was Released on  18 August 2017 in India.

Director: Vikram Thori
Writers: Sanjay Saini, Uday Pratap Singh
Stars: Mahavir Bhullar, Tannu Kaur Gill, Jagjit

Rocky Mental Poster

Rocky Mental 2017 CAMRIP Punjabi Movie Download Full Hd Free Moviemart.com

General
Complete name                  : G:\film\PUNJABI\Rocky Mental 2017 CAM RIP Punjabi GST.mp4
Format                         : MPEG-4
Format profile                 : Base Media
Codec ID                       : isom (isom/iso2/avc1/mp41)
File size                      : 234 MiB
Duration                       : 1 h 53 min
Overall bit rate mode          : Variable
Overall bit rate               : 289 kb/s
Writing application            : Lavf56.15.102

Video
Format                         : AVC
Codec ID/Info                  : Advanced Video Coding
Duration                       : 1 h 53 min
Bit rate                       : 219 kb/s
Width                          : 640 pixels
Height                         : 272 pixels
Display aspect ratio           : 2.35:1
Frame rate mode                : Constant
Frame rate                     : 23.976 (23976/1000) FPS
Stream size                    : 178 MiB (76%)
Writing library                : x264 core 142

Audio
Format                         : AAC
Duration                       : 1 h 53 min
Bit rate mode                  : Variable
Bit rate                       : 64.6 kb/s
Maximum bit rate               : 96.0 kb/s
Channel(s)                     : 2 channels
Channel positions              : Front: L R
Sampling rate                  : 44.1 kHz
Frame rate                     : 43.066 FPS (1024 SPF)
Stream size                    : 52.5 MiB (22%

Rocky Mental free download in Punjabi full hd

Quality: CAMRIP
Size: 234 MiB
Country Bollywood
Language:  Punjabi
Uploaded Date: 19 Oct 2017

Download Full Hd

Image result

Image result for thanks gifs

Movie Story: rocky mental full movie hd A boxer caught up in a scandal is targeted by a man who wants to destroy his life.

rocky mental full movie hd download
new punjabi film parmish verma latest punjabi movies 2017 full hd
new punjabi movies parmish verma download
rocky mental full movie online free
rocky mental full movie watch online
rocky mental watch online dailymotion
rocky mental full movie watch online hd
rocky mental download full movie
rocky mental movie download hd
rocky mental full movie download filmywap
rocky mental full movie download hd
new punjabi film parmish verma latest punjabi movies 2017 full hd
new punjabi movies parmish verma download
rocky mental full movie download filmywap
rocky mental download full movie
rocky mental full punjabi movie download
rocky mental full movie watch online
rocky mental full movie hd download
rocky mental movie download full movie

Recent search terms:

  • rocky mental punjabi movie download
  • rocky mental full movie download
  • rocky mental full hd
  • rocky mental full hd download
  • Rocky mental Punjabi movie download HD

Leave a Reply