LIE (2017) WEBHD 720p Telugu+Hindi x264 AAC Full Hd

LIE (2017) WEBHD 720p Telugu+Hindi x264 AAC Full Hd This movie size is 2.32 GiB its movie genres are RomanceThriller LIE free download in Hindi Dubbed full hd length is 2h 25min. LIE (Love Intelligence Enmity) is a 2017 Indian Telugu movie Released on 11 August 2017 in India.

Director: Hanumantha Rao Raghavapudi
Writer: Hanumantha Rao Raghavapudi
Stars: Ajay, Megha Akash, Arjun

LIE Poster

LIE (2017) WEBHD 720p Telugu+Hindi x264 AAC Full Hd Moviemart.com

Format                                   : Matroska
Format version                           : Version 4 / Version 2
File size                                : 2.32 GiB
Duration                                 : 2 h 21 min
Overall bit rate mode                    : Variable
Overall bit rate                         : 2 351 kb/s
Movie name                               : visit and support www.movcr.com – Kingmaker Exclusive
Encoded date                             : UTC 2017-10-17 14:34:50
Writing application                      : mkvmerge v11.0.0 (‘Alive’) 64bit
Writing library                          : libebml v1.3.4 + libmatroska v1.4.5

Video
ID                                       : 1
Format                                   : AVC
Format/Info                              : Advanced Video Codec
Format profile                           : [email protected]
Format settings, CABAC                   : Yes
Format settings, ReFrames                : 4 frames
Format settings, GOP                     : M=4, N=50
Codec ID                                 : V_MPEG4/ISO/AVC
Duration                                 : 2 h 21 min
Bit rate                                 : 1 978 kb/s
Width                                    : 1 280 pixels
Height                                   : 720 pixels
Display aspect ratio                     : 16:9
Frame rate mode                          : Constant
Frame rate                               : 25.000 FPS
Color space                              : YUV
Chroma subsampling                       : 4:2:0
Bit depth                                : 8 bits
Scan type                                : Progressive
Bits/(Pixel*Frame)                       : 0.086
Stream size                              : 1.95 GiB (84%)
Title                                    : visit and support www.movcr.com – Kingmaker
Language                                 : English
Default                                  : Yes
Forced                                   : No

Audio #1
ID                                       : 2
Format                                   : AAC
Format/Info                              : Advanced Audio Codec
Format profile                           : LC
Codec ID                                 : A_AAC
Duration                                 : 2 h 20 min
Bit rate                                 : 132 kb/s
Channel(s)                               : 2 channels
Channel positions                        : Front: L R
Sampling rate                            : 44.1 kHz
Frame rate                               : 43.066 FPS (1024 spf)
Compression mode                         : Lossy
Delay relative to video                  : 1 s 939 ms
Stream size                              : 133 MiB (6%)
Title                                    : visit and support www.movcr.com – Kingmaker
Default                                  : Yes
Forced                                   : No

Audio #2
ID                                       : 3
Format                                   : MPEG Audio
Format version                           : Version 1
Format profile                           : Layer 3
Codec ID                                 : A_MPEG/L3
Codec ID/Hint                            : MP3
Duration                                 : 2 h 20 min
Bit rate mode                            : Variable
Bit rate                                 : 239 kb/s
Channel(s)                               : 2 channels
Sampling rate                            : 48.0 kHz
Frame rate                               : 41.667 FPS (1152 spf)
Compression mode                         : Lossy
Stream size                              : 241 MiB (10%)

LIE free download in Hindi Dubbed full hd

Quality: WEBHD
Size: 2.32 GiB
Country Bollywood
Language: Hindi
Uploaded Date: 21 Oct 2017

Download Full Hd

Image result

Image result for thanks gifs

Movie Story: lie full movie telugu download LIE revolves around a guy named A. Satyam and tells it as Asatyam. He falls in love with a girl who falls for him for all the lies he says. It is the story of how he manages both love and his enmity don (Arjun) with intelligence lie 2017 full movie download.

lie telugu full movie free download
lie telugu full movie online watch
lie telugu movie online watch free
lie movie online watch telugu
lie telugu movie download
tamilrockers latest telugu movies 2017
lie 2017 full movie download
lie telugu full movie free download
lie telugu full movie online watch
lie telugu movie online watch free
lie full movie download
lie movie online watch telugu
lie telugu movie download
tamilrockers latest telugu movies 2017
lie full movie telugu download
lie 2017 full movie download
lie telugu full movie free download
lie telugu full movie online watch
lie telugu movie online watch free
lie full movie download
lie movie online watch telugu
tamilrockers latest telugu movies 2017

Recent search terms:

  • telulgu hindi movie LIE 720P

Leave a Reply