Good Will Hunting 1997 720p BRRip x264 Dual Audio Movie Free Hd

Good Will Hunting 1997 720p BRRip x264 Dual Audio Movie Free Hd This movie size is 937.10 MB its movie genres are Drama Good Will Hunting free download in hindi dubbed full hd length is 2h 6min. Good Will Hunting is a 1997 American drama film Released on  9 January 1998.

Director: Gus Van Sant
Writers: Matt Damon, Ben Affleck
Stars: Robin Williams, Matt Damon, Ben Affleck

Good Will Hunting theatrical poster.jpg

Good Will Hunting 1997 720p BRRip x264 Dual Audio Movie Free Hd Moviemart.com

General
Format                                   : Matroska
Format version                           : Version 4 / Version 2
File size                                : 937 MiB
Duration                                 : 2 h 6 min
Overall bit rate                         : 1 035 kb/s

Video
ID                                       : 1
Format                                   : AVC
Format/Info                              : Advanced Video Codec
Format profile                           : High@L4
Format settings                          : CABAC / 9 Ref Frames
Format settings, CABAC                   : Yes
Format settings, RefFrames               : 9 frames
Codec ID                                 : V_MPEG4/ISO/AVC
Duration                                 : 2 h 6 min
Bit rate                                 : 840 kb/s
Width                                    : 1 280 pixels
Height                                   : 688 pixels
Frame rate                               : 23.976 (24000/1001) FPS
Color space                              : YUV
Chroma subsampling                       : 4:2:0
Bit depth                                : 8 bits
Scan type                                : Progressive
Bits/(Pixel*Frame)                       : 0.040
Stream size                              : 761 MiB (81%)

Audio #1
ID                                       : 2
Format                                   : AAC
Duration                                 : 2 h 6 min
Bit rate                                 : 96.0 kb/s
Channel(s)                               : 2 channels
Channel positions                        : Front: L R
Sampling rate                            : 48.0 kHz
Language                                 : Hindi

Audio #2
ID                                       : 3
Format                                   : AAC
Format profile                           : LC
Bit rate                                 : 96.0 kb/s
Channel(s)                               : 2 channels
Channel positions                        : Front: L R
Sampling rate                            : 48.0 kHz
Stream size                              : 86.9 MiB (9%)
Language                                 : English

Text
ID                                       : 4
Format                                   : UTF-8
Codec ID                                 : S_TEXT/UTF8
Codec ID/Info                            : UTF-8 Plain Text
Duration                                 : 2 h 3 min
Bit rate                                 : 90 b/s
Count of elements                        : 1756
Stream size                              : 81.9 KiB (0%)
Default                                  : Yes
Forced                                   : No

Good Will Hunting free download in hindi dubbed full hd

Quality: BRRip
Size: 937.10 MB
Country Hollywood
Language:  Hindi
Uploaded Date: 17 Oct 2017

Download Full Hd

Image result

Image result for thanks gifs

Movie Story: good will hunting full movie A touching tale of a wayward young man who struggles to find his identity, living in a world where he can solve any problem, except the one brewing deep within himself, until one day he meets his soul mate who opens his mind and his heart good will hunting full movie.

good will hunting download
good will hunting youtube
good will hunting 123movies
watch good will hunting 123movies
good will hunting full movie putlockers
good will hunting full movie free download
good will hunting full movie 123movies
good will hunting full movie dailymotion
watch good will hunting vodlocker
good will hunting full movie youtube
good will hunting megashare9
good will hunting megavideo
good will hunting cmovies
good will hunting full movie with english subtitle
good will hunting full movie download mp4
good will hunting solarmovie
good will hunting fullmovie
good will hunting full movie putlockers
good will hunting full movie free download

Recent search terms:

  • good will hunting dual audio download
  • Good Will hunting full movie in hindi free download in hd for
  • love hunting chines mive duall audio in hindi move

Leave a Reply