Good Time 2017 720p BRRip 950MB Free Movie Download

Good Time 2017 720p BRRip 950MB Free Movie Download Hd Free This movie size is 952.91 MB its movie genres are  CrimeDramaThriller  Good Time free download in English full hd length is 1h 41min.

Directors: Benny Safdie, Josh Safdie
Writers: Ronald Bronstein, Josh Safdie
Stars: Robert Pattinson, Benny Safdie, Jennifer Jason Leigh

Imdb Picture

Good Time 2017 720p BRRip 950MB Free Movie Download


 Format                                   : Matroska
Format version                           : Version 4 / Version 2
File size                                : 953 MiB
Duration                                 : 1 h 41 min
Overall bit rate                         : 1 318 kb/s
Movie name                               : Good.Time.2017.720p.BRRip.950MB.MkvCage
Encoded date                             : UTC 2017-11-04 02:03:13
Writing application                      : mkvmerge v16.0.0 (‘Protest’) 64-bit
Writing library                          : libebml v1.3.5 + libmatroska v1.4.8

Video
ID                                       : 2
Format                                   : AVC
Format/Info                              : Advanced Video Codec
Format profile                           : [email protected]
Format settings, CABAC                   : Yes
Format settings, ReFrames                : 9 frames
Codec ID                                 : V_MPEG4/ISO/AVC
Duration                                 : 1 h 41 min
Bit rate                                 : 1 216 kb/s
Width                                    : 1 280 pixels
Height                                   : 536 pixels
Display aspect ratio                     : 2.40:1
Frame rate mode                          : Constant
Frame rate                               : 24.000 FPS
Color space                              : YUV
Chroma subsampling                       : 4:2:0
Bit depth                                : 8 bits
Scan type                                : Progressive
Bits/(Pixel*Frame)                       : 0.074
Stream size                              : 879 MiB (92%)
Writing library                          : x264 core 133 r2334 a3ac64b
Encoding settings                        : cabac=1 / ref=9 / deblock=1:-1:-1 / analyse=0x3:0x133 / me=umh / subme=10 / psy=1 / psy_rd=1.00:0.00 / mixed_ref=1 / me_range=24 / chroma_me=1 / trellis=2 / 8x8dct=1 / cqm=0 / deadzone=21,11 / fast_pskip=1 / chroma_qp_offset=-2 / threads=48 / lookahead_threads=4 / sliced_threads=0 / nr=0 / decimate=1 / interlaced=0 / bluray_compat=0 / constrained_intra=0 / bframes=6 / b_pyramid=2 / b_adapt=2 / b_bias=0 / direct=3 / weightb=1 / open_gop=0 / weightp=2 / keyint=240 / keyint_min=24 / scenecut=40 / intra_refresh=0 / rc_lookahead=60 / rc=2pass / mbtree=1 / bitrate=1216 / ratetol=1.0 / qcomp=0.60 / qpmin=10 / qpmax=51 / qpstep=4 / cplxblur=20.0 / qblur=0.5 / vbv_maxrate=62500 / vbv_bufsize=78125 / nal_hrd=none / ip_ratio=1.40 / aq=1:1.00
Default                                  : Yes
Forced                                   : No

Audio
ID                                       : 1
Format                                   : AAC
Format/Info                              : Advanced Audio Codec
Format profile                           : HE-AAC / LC
Codec ID                                 : A_AAC
Duration                                 : 1 h 41 min
Bit rate                                 : 100.0 kb/s
Channel(s)                               : 2 channels
Channel positions                        : Front: L R
Sampling rate                            : 48.0 kHz / 24.0 kHz
Frame rate                               : 23.438 FPS (1024 spf)
Compression mode                         : Lossy
Delay relative to video                  : 31 ms
Stream size                              : 72.3 MiB (8%)
Language                                 : English
Default                                  : Yes
Forced                                   : No

Good Time free download in English full hd

Quality: BRRip
Size: 952.91 MB
Country Hollywood
Language:  English
Uploaded Date: 14 November 2017

Download Full Hd

Movie Story: After a heist goes awry, Good Time hindi dubbed hd 1080p a bank robber spends a night trying to free his mentally ill brother from being sent to Riker’s Island prison.

Good Time movie in hindi watch online
Good Time full movie hindi dubbed download mp4
Good Time full movie in hindi free download hd 720p dailymotion
Good Time full movie in hindi watch online hd 720p
Good Time full movie in hindi youtube
Good Time full movie in hindi watch online free dailymotion
Good Time full movie in hindi dailymotion
Good Time full movie in urdu
Good Time full movie download hd
Good Time full movie in hindi download utorrent
Good Time hindi dubbed hd 1080p

Leave a Reply