Alien Convergence 2017 1080p BluRay H264 AAC mkv Free Movie Download

Alien Convergence 2017 1080p BluRay H264 AAC mkv Free Movie Download Hd Free This movie size is 1.65 GB its movie genres are  ActionHorror Alien Convergence free download in English full hd length is 1h 27min .

Director: Rob Pallatina
Writer: Marc Gottlieb
Stars: Caroline Ivari, Stephen Brown, Ikaika

Imdb Picture

Alien Convergence 2017 1080p BluRay H264 AAC mkv Free Movie Download

Video
ID                                       : 1
Format                                   : AVC
Format/Info                              : Advanced Video Codec
Format profile                           : [email protected]
Format settings                          : CABAC / 4 Ref Frames
Format settings, CABAC                   : Yes
Format settings, RefFrames               : 4 frames
Codec ID                                 : avc1
Codec ID/Info                            : Advanced Video Coding
Duration                                 : 1 h 26 min
Bit rate                                 : 2 500 kb/s
Width                                    : 1 920 pixels
Height                                   : 1 080 pixels
Display aspect ratio                     : 16:9
Frame rate mode                          : Constant
Frame rate                               : 23.976 (23976/1000) FPS
Color space                              : YUV
Chroma subsampling                       : 4:2:0
Bit depth                                : 8 bits
Scan type                                : Progressive
Bits/(Pixel*Frame)                       : 0.050
Stream size                              : 1.52 GiB (92%)

Audio
ID                                       : 2
Format                                   : AAC
Format/Info                              : Advanced Audio Codec
Format profile                           : LC
Codec ID                                 : mp4a-40-2
Duration                                 : 1 h 26 min
Bit rate mode                            : Constant
Bit rate                                 : 224 kb/s
Channel(s)                               : 2 channels
Channel(s)_Original                      : 6 channels
Channel positions                        : Front: L C R, Side: L R, LFE
Sampling rate                            : 48.0 kHz
Frame rate                               : 46.875 FPS (1024 SPF)
Compression mode                         : Lossy
Stream size                              : 139 MiB (8%)
Language                                 : English
Default                                  : Yes

Alien Convergence free download in English full hd

Quality: BluRay
Size: 1.65 GB
Country Hollywood
Language:  English
Uploaded Date: 14 November 2017

Download Full Hd

Movie Story: When reptilian aliens begin to take over the world, the remaining survivors must band together and fight back with newly developed fighter jets.

Alien Convergence hindi dubbed hd 1080p
Alien Convergence hindi dubbed download 720p mkv
Alien Convergence full movie in hindi hd 1080p
best hd movies Alien Convergence
Alien Convergence full movie download in hindi 720p khatrimaza
Alien Convergence full movie in hindi download utorrent
Alien Convergence full movie download mp4
Alien Convergence full movie free download hd in hindi
Alien Convergence full movie download in hindi 720p khatrimaza
Alien Convergence full movie hindi dubbed download mp4
Alien Convergence full movie in hindi download free
Alien Convergence full movie in hindi online
Alien Convergence hindi dubbed download 720p mkv

Leave a Reply